Details for this torrent 

Du forsvinder 2017 720p HDRip x264-titler
Type:
Video > HD - Movies
Files:
4
Size:
1.22 GiB (1306018898 Bytes)
Info:
IMDB
Tag(s):
Du forsvinder Du forsvinder 2017 You Disappear You Disappear 2017 Trine Dyrholm Nikolaj Lie Kaas Michael Nyqvist
Uploaded:
2018-07-19 02:43:53 GMT
By:
movieZ.freak VIP
Seeders:
1
Leechers:
4
Comments
0  

Info Hash:
A2BE59FF29EA49950B16D90A5DE6836C5D8F0DEA




(Problems with magnets links are fixed by upgrading your torrent client!)
SOURCE:
------------
Du Forsvinder 2017 DANiSH 1080p WEB-DL DD5.1 H.264-ROLLiT

 
http://www.imdb.com/title/tt5194504/
 
http://en.wikipedia.org/wiki/You_Disappear


- SAMPLE: Yes

- SUBTITLE: English

- LANGUAGE / AUDIO: Danish, Swedish, English


SCREENSHOTS:
------------------- 
http://imgur.com/a/P3civeu


DIRECTOR: Peter Schønau Fog


CAST: Trine Dyrholm, Nikolaj Lie Kaas, Michael Nyqvist, Meike Bahnsen, Mikkel Boe Følsgaard, Laura Bro, ...


PLOT:
-----------
When a school principal gets a terminal diagnosis, his marriage begins to fall apart.

************************************

- Duration: 1h 52min

- Nominal bit rate: 1420 kb/s

- Res: 1280 x 536

- AR: 2.40:1

- FPS: 25.000 FPS

- Audio: AAC, 2 channels, 128 Kbps

************************************

General
--------------
Format : Matroska
Format version : Version 4 / Version 2
File size : 1.20 GiB
Duration : 1h 52min
Overall bit rate : 1532 kb/s
Encoded date : UTC 2018-07-18 22:49:40
Writing application : mkvmerge v25.0.0 ('Prog Noir') 64-bit
Writing library : libebml v1.3.6 + libmatroska v1.4.9

Video
------------
Format : AVC
Format/Info : Advanced Video Codec
Format profile : [email protected]
Format settings : CABAC / 5 Ref Frames
Format settings, CABAC : Yes
Format settings, ReFrames : 5 frames
Codec ID : V_MPEG4/ISO/AVC
Duration : 1h 52min
Bit rate : 1420 kb/s
Width : 1280 pixels
Height : 536 pixels
Display aspect ratio : 2.40:1
Frame rate mode : Constant
Frame rate : 25.000 FPS
Color space : YUV
Chroma subsampling : 4:2:0
Bit depth : 8 bits
Scan type : Progressive
Bits/(Pixel*Frame) : 0.083
Stream size : 1.10 GiB (91%)
Writing library : x264 core 142
Encoding settings : cabac=1 / ref=5
Default : Yes
Forced : No

Audio
-----------
Format : AAC
Format/Info : Advanced Audio Codec
Format profile : LC
Codec ID : A_AAC-2
Duration : 1h 52min
Bit rate : 128 kb/s
Channel(s) : 2 channels
Channel positions : Front: L R
Sampling rate : 48.0 kHz
Compression mode : Lossy
Stream size : 103 MiB (8%)
Title : Stereo
Language : Danish
Default : Yes
Forced : No